<?xml version="1.0" standalone="no"?>
<!DOCTYPE svg PUBLIC "-//W3C//DTD SVG 1.1//EN" "http://www.w3.org/Graphics/SVG/1.1/DTD/svg11.dtd" >
<svg xmlns="http://www.w3.org/2000/svg">
<metadata>Generated by IcoMoon</metadata>
<defs>
<font id="icomoon" horiz-adv-x="1024">
<font-face units-per-em="1024" ascent="960" descent="-64" />
<missing-glyph horiz-adv-x="1024" />
<glyph unicode="&#x20;" horiz-adv-x="512" d="" />
<glyph unicode="&#x25fb;" glyph-name="maximize" d="M755.84 649.92v-410.88h-490.24v410.88h490.24zM787.84 681.92h-554.24v-474.88h554.24v474.88z" />
<glyph unicode="&#x2630;" glyph-name="burger" d="M814.72 277.44v-32h-608v32h608zM814.72 469.44v-32h-608v32h608zM814.72 661.44v-32h-608v32h608z" />
<glyph unicode="&#x268a;" glyph-name="minimize" d="M814.72 277.44v-32h-608v32h608z" />
<glyph unicode="&#x2713;" glyph-name="pro_checked" horiz-adv-x="1498" d="M1385.533 960c-30.259-0.364-57.51-12.946-77.105-33.032l-731.352-733.419-398.031 320.904c-18.653 15.14-42.688 24.308-68.863 24.308-60.585 0-109.698-49.114-109.698-109.698 0-34.409 15.842-65.118 40.631-85.231l475.362-383.73c18.625-15.13 42.629-24.293 68.772-24.293 30.477 0 58.045 12.452 77.896 32.545l802.959 803.648c20.505 19.921 33.228 47.757 33.228 78.564 0 60.471-49.022 109.493-109.493 109.493-1.272 0-2.538-0.022-3.8-0.065z" />
<glyph unicode="&#x2716;" glyph-name="close" d="M284.411 657.148l22.627 22.627 429.921-429.921-22.627-22.627-429.921 429.921zM714.428 679.749l22.627-22.627-429.921-429.921-22.627 22.627 429.921 429.921z" />
<glyph unicode="&#xe900;" glyph-name="menu_soft" d="M0 846.222v-341.333h455.111v455.111h-341.333c-62.838 0-113.778-50.94-113.778-113.778zM910.222 960h-341.333v-455.111h455.111v341.333c0 62.838-50.94 113.778-113.778 113.778zM0 49.778c0-62.838 50.94-113.778 113.778-113.778h341.333v455.111h-455.111zM568.889-64h341.333c62.838 0 113.778 50.94 113.778 113.778v341.333h-455.111z" />
<glyph unicode="&#xe901;" glyph-name="menu_protect" horiz-adv-x="885" d="M664.541 863.759c-0.747-0.007-1.631-0.011-2.515-0.011-86.51 0-164.379 37-218.644 96.038-54.811-59.046-132.813-96.038-219.455-96.038-0.905 0-1.808 0.004-2.711 0.012-84.142 1.075-161.222 31.030-221.872 80.396l0.656-522.142c3.85-343.579 442.707-485.534 442.707-485.534s442.707 144.361 442.707 485.534v521.624c-59.76-48.978-136.728-78.971-220.673-79.878z" />
<glyph unicode="&#xe902;" glyph-name="menu_diagnostics" horiz-adv-x="1483" d="M606.715 960l-67.413-168.532-215.047-525.145-24.269 91.007-18.876 80.895h-281.111v-134.826h195.497l74.154-187.408 67.413-157.746 57.301 129.433 205.609 492.113 168.532-496.158 49.885-145.612 74.154 134.826 172.577 304.032 75.502-83.592 20.224 10.786h322.233v134.826h-245.382l-117.298 153.027-61.346 80.221-57.301-116.624-154.375-282.46-178.644 518.404-58.649 168.532z" />
<glyph unicode="&#xe903;" glyph-name="auto_installation" d="M135.68 577.024l303.616-354.816c19.755-23.242 49.012-37.891 81.691-37.891 0.26 0 0.521 0.001 0.781 0.003 0.032 0 0.117 0 0.202 0 32.73 0 62.093 14.419 82.082 37.25l307.308 354.43c5.748 9.595 9.147 21.168 9.147 33.536s-3.399 23.941-9.314 33.837c-11.315 20.554-33.128 34.462-58.194 34.515l-151.047 3.072v195.584c0 0.007 0 0.016 0 0.025 0 46.091-37.365 83.456-83.456 83.456-0.72 0-1.438-0.009-2.154-0.027l-184.214 0.002c-46.091 0-83.456-37.365-83.456-83.456v-198.144h-151.040c-0.169 0.002-0.369 0.002-0.569 0.002-25.092 0-46.99-13.674-58.649-33.977-6.65-10.464-10.496-22.823-10.496-36.080 0-11.458 2.873-22.245 7.938-31.679zM407.040 620.032v256c0.281 13.459 11.117 24.295 24.55 24.576h183.322c13.459-0.281 24.295-11.117 24.576-24.55v-252.442l229.888-4.608-307.2-358.4c-9.415-10.483-23.013-17.046-38.144-17.046s-28.729 6.564-38.102 16.999l-307.242 358.447zM844.8-39.936c16.259 0 29.44 13.181 29.44 29.44s-13.181 29.44-29.44 29.44h-643.072c-16.259 0-29.44-13.181-29.44-29.44s13.181-29.44 29.44-29.44z" />
<glyph unicode="&#xe904;" glyph-name="create_recovery_point" d="M688.924 817.778l11.947-5.689c77.581-40.456 139.201-102.442 178.119-178.028l64.228 26.135c-29.613 62.397-70.498 114.932-120.477 157.011-27.946 23.718-58.531 44.497-91.232 61.814l-15.847 8.161c-60.131 28.087-130.555 44.476-204.808 44.476-171.268 0-322.171-87.193-410.74-219.61l-25.59-31.373-74.524 36.978 41.529-166.684c2.678-7.762 8.15-13.974 15.186-17.555 3.788-1.624 7.992-2.522 12.406-2.522s8.618 0.898 12.44 2.52l157.942 68.757-92.729 44.942 29.582 40.96c74.6 104.562 195.494 171.924 332.12 171.924 65.735 0 127.828-15.593 182.782-43.283zM255.431 570.311v0 0 0zM975.076 345.031c-3.603 1.605-7.808 2.54-12.231 2.54s-8.628-0.935-12.427-2.617l-158.524-69.327 92.729-46.080-29.582-40.96c-74.699-103.473-194.965-170.033-330.776-170.033-66.040 0-128.403 15.738-183.545 43.668l-9.626 4.623c-78.068 40.727-139.959 103.35-178.692 179.704l-64.224-26.104c29.074-63.699 69.841-117.399 119.993-160.482 27.803-22.767 58.397-42.817 91.012-59.472l15.981-8.17c60.014-27.963 130.287-44.277 204.371-44.277 171.184 0 322.023 87.107 410.61 219.415l25.588 31.369 74.524-36.978-41.529 166.684c-2.511 7.066-7.319 12.795-13.508 16.419z" />
<glyph unicode="&#xe905;" glyph-name="create_drivers_backup" d="M471.609 654.507c-1.368 0.308-2.939 0.484-4.551 0.484s-3.183-0.176-4.695-0.511l-24.888 0.027c-10.997 0-19.911-8.915-19.911-19.911l-2.844-259.982c1.224-8.145 6.138-14.935 12.953-18.707l5.82-0.067 265.671-5.12c5.595 0.147 10.61 2.515 14.216 6.252 3.509 3.498 5.681 8.324 5.695 13.657v23.327c-0.168 8.053-4.96 14.948-11.821 18.152-1.489 0.178-3.075 0.249-4.677 0.249s-3.188-0.071-4.753-0.211l-217.682 7.41 2.844 216.178c0.003 0.126 0.004 0.276 0.004 0.425 0 7.996-4.583 14.922-11.265 18.295zM716.8-12.8c135.951 65.475 236.491 186.149 273.455 332.153l0.749 3.491c5.149 28.164 8.094 60.576 8.094 93.675 0 159.945-68.758 303.831-178.327 403.713-27.151 22.359-57.176 42.207-89.171 58.779l-15.937 7.602c-60.208 28.17-130.733 44.608-205.097 44.608-171.084 0-321.846-87.005-410.454-219.183l-25.586-31.363-74.524 36.978 41.529-166.684c2.678-7.762 8.15-13.974 15.186-17.555 3.783-1.654 7.987-2.57 12.406-2.57s8.623 0.916 12.434 2.568l157.949 68.757-93.298 44.942 29.582 40.96c75.805 102.676 196.364 168.534 332.305 168.534 63.384 0 123.424-14.318 177.063-39.895l16.855-8.603c135.386-71.667 226.054-211.639 226.054-372.787 0-65.025-14.763-126.603-41.12-181.563-67.542-138.711-209.92-234.341-374.634-234.341-67.925 0-132.052 16.263-188.699 45.108l-27.788 13.699-36.409-67.698 33.564-19.342c63.073-31.565 137.418-50.043 216.078-50.043 75.413 0 146.858 16.983 210.722 47.334z" />
<glyph unicode="&#xe906;" glyph-name="add_remove_programs" d="M512-64c282.77 0 512 229.23 512 512s-229.23 512-512 512c-282.77 0-512-229.23-512-512 0.318-282.641 229.358-511.682 511.969-512zM512 904.105c0.166 0 0.362 0 0.559 0 252.208 0 456.664-204.455 456.664-456.664s-204.455-456.664-456.664-456.664c-252.208 0-456.664 204.455-456.664 456.664 0 0.196 0 0.393 0 0.589 0.634 251.614 204.461 455.44 456.044 456.074zM347.668 768.279c-1.143 0.569-2.489 0.901-3.913 0.901s-2.77-0.333-3.965-0.925c-62.968-34.562-113.366-85.318-146.562-146.737-1.482-3.071-1.792-4.416-1.792-5.834s0.311-2.763 0.867-3.972c1.008-2.657 2.987-4.817 5.5-6.060l29.69-14.003c1.532-0.737 3.331-1.168 5.231-1.168 4.771 0 8.908 2.717 10.946 6.688 28.134 50.677 68.414 91.495 117.031 119.449 5.462 3.036 8.093 7.222 8.093 12.022 0 1.799-0.369 3.511-1.036 5.065l-13.942 29.541c-1.371 2.354-3.511 4.131-6.070 5.007zM661.24 177.467c-4.040-2.071-6.758-6.208-6.758-10.979 0-1.9 0.431-3.699 1.2-5.305l13.942-29.55c1.396-2.675 3.766-4.681 6.628-5.568 1.229-0.554 2.574-0.864 3.992-0.864s2.763 0.311 3.972 0.867c63.121 34.341 113.698 84.918 147.115 146.198 1.481 3.049 1.791 4.394 1.791 5.812s-0.311 2.763-0.867 3.972c-0.884 2.882-2.89 5.252-5.504 6.619l-29.686 14.003c-1.471 0.635-3.183 1.005-4.982 1.005-4.801 0-8.987-2.631-11.194-6.53-28.447-50.602-69.111-91.266-118.11-118.882zM512 587.179c-76.866 0-139.179-62.313-139.179-139.179s62.313-139.179 139.179-139.179c76.866 0 139.179 62.313 139.179 139.179s-62.313 139.179-139.179 139.179zM512 363.598c-46.614 0-84.402 37.788-84.402 84.402s37.788 84.402 84.402 84.402c46.614 0 84.402-37.788 84.402-84.402s-37.788-84.402-84.402-84.402z" />
<glyph unicode="&#xe907;" glyph-name="network_connections" d="M512 960c-1.572 0.017-3.429 0.027-5.288 0.027-281.208 0-509.171-227.964-509.171-509.171 0-100.953 29.38-195.044 80.056-274.189l-1.221-0.791c92.060-145.022 251.8-239.873 433.694-239.873 282.77 0 512 229.23 512 512 0 282.091-228.131 510.899-509.965 511.996zM512 907.386c63.364 0 124.464-99.006 156.146-251.757l2.829-14.709h-15.275c-43.512-6.873-94.204-11.167-145.764-11.872-1.473-0.010-2.313-0.011-3.153-0.011-49.423 0-98.078 3.29-145.757 9.664l-9.697-0.61 2.829 14.709c33.379 155.58 94.48 254.586 157.843 254.586zM681.724 588.305v-14.144c4.683-37.681 7.355-81.293 7.355-125.53 0-0.222 0-0.445 0-0.667-0.727-47.76-4.405-93.981-10.864-139.305l0.681-8.32h-14.144c-45.711 6.34-98.525 9.96-152.186 9.96s-106.476-3.62-158.216-10.628l-8.114 0.668v14.144c-4.898 38.892-7.693 83.897-7.693 129.556s2.795 90.663 8.224 134.853l-0.53 8.846h14.144c45.881-6.391 98.89-10.039 152.751-10.039s106.87 3.648 158.794 10.712zM143.134 721.255c53.691 71.916 126.381 126.918 210.663 157.947l42.225 14.605-20.367-33.945c-32.991-56.6-57.975-122.445-71.239-192.437l-0.611-18.021-14.144 3.394c-53.614 10.766-101.128 26.996-145.597 48.527l-11.68 5.785zM109.189 224.53l-6.223 12.446c-31.737 60.839-50.355 132.871-50.355 209.251 0 0.623 0.001 1.246 0.004 1.868-0.001 0.099-0.001 0.33-0.001 0.56 0 73.13 17.344 142.209 48.143 203.347l5.037 10.415 13.012-6.789c47.337-24.065 102.257-43.253 159.948-54.758l16.565-0.685v-12.446c-6.411-40.679-10.881-88.922-12.401-137.908-0.047-2.576-0.048-3.457-0.048-4.338 0-49.762 3.084-98.804 9.072-146.945l-0.584-7.259h-12.446c-60.312-13.123-113.601-32.624-163.183-58.289zM356.986 15.204c-85.343 31.011-156.531 83.786-209.107 151.697l-11.534 14.632 15.275 7.355c38.95 18.966 84.314 34.758 131.718 45.084l18.204 4.136 2.829-14.144c13.662-71.117 37.631-134.454 70.609-191.964l18.779-30.939zM512-11.951c-62.232 0-122.767 96.177-154.449 244.968l-3.394 14.709h15.275c42.476 5.769 91.572 9.062 141.436 9.062s98.959-3.293 147.079-9.673l9.633 0.612-3.394-14.709c-29.419-148.225-89.954-244.402-152.186-244.402zM876.906 167.956c-53.282-68.82-124.246-121.557-206.129-151.721l-40.536-14.608 20.367 33.945c31.17 54.521 54.951 117.87 67.838 185.090l3.446 18.013 14.144-2.829c51.437-10.991 96.806-26.788 139.405-47.408l11.649-6.337zM917.64 662.418l6.223-13.012c30.597-59.826 48.527-130.502 48.527-205.366s-17.93-145.54-49.73-207.969l-5.020-9.843-12.446 7.355c-45.931 23.908-99.216 43.407-155.181 55.766l-16.806 0.808v13.012c5.405 42.359 8.489 91.365 8.489 141.092 0 0.917-0.001 1.834-0.003 2.751 0.062 4.384 0.097 9.727 0.097 15.079 0 43.259-2.296 85.982-6.772 128.054l0.452 7.212h12.446c60.87 12.822 114.766 32.351 164.825 58.263zM890.484 707.112l-14.709-7.355c-40.39-19.735-87.338-35.771-136.486-45.744l-17.962-4.041-2.829 14.144c-12.605 73.444-36.285 139.202-69.51 198.921l-18.747 30.772 37.339-13.578c87.18-32.032 159.65-86.817 212.429-157.215z" />
<glyph unicode="&#xe908;" glyph-name="computer_management" d="M1012.622 266.524v522.809c0 62.838-50.94 113.778-113.778 113.778h-785.067c-62.838 0-113.778-50.94-113.778-113.778v-519.964c0-62.838 50.94-113.778 113.778-113.778h284.444c20.108 0 36.409-16.301 36.409-36.409v-79.076h-77.369c-5.655 0-10.24-4.585-10.24-10.24v-37.547c0-5.655 4.585-10.24 10.24-10.24h298.098c5.655 0 10.24 4.585 10.24 10.24v37.547c0 5.655-4.585 10.24-10.24 10.24h-77.369v74.524c0 20.108 16.301 36.409 36.409 36.409h290.133c60.348 3.106 108.104 52.794 108.104 113.636 0 0.65-0.005 1.298-0.016 1.946zM113.778 209.636c-31.419 0-56.889 25.47-56.889 56.889v522.809c0 31.419 25.47 56.889 56.889 56.889h796.444c25.031-6.33 43.26-28.652 43.26-55.232 0-0.583-0.009-1.163-0.026-1.741l0.002-519.88c0-31.419-25.47-56.889-56.889-56.889zM512 698.311c-11.893-0.153-21.94-7.885-25.544-18.581l-0.056-0.193c-17.805-53.61-67.499-91.591-126.064-91.591-0.081 0-0.161 0-0.242 0h0.013c-14.759-0.413-26.566-12.476-26.566-27.297 0-8.777 4.14-16.586 10.575-21.582l0.062-0.046c33.327-24.375 54.73-63.339 54.73-107.301 0-14.512-2.332-28.478-6.642-41.546l0.268 0.937c-0.67-2.252-1.055-4.84-1.055-7.518 0-15.081 12.226-27.307 27.307-27.307 5.701 0 10.993 1.747 15.372 4.734l-0.094-0.061c21.57 15.831 48.644 25.334 77.938 25.334s56.368-9.503 78.309-25.593l-0.371 0.259c4.432-3.235 9.987-5.175 15.995-5.175 15.081 0 27.307 12.226 27.307 27.307 0 2.862-0.44 5.621-1.257 8.213l0.053-0.193c-3.778 11.748-5.956 25.263-5.956 39.287 0 44.764 22.19 84.346 56.171 108.345l0.416 0.279c6.496 5.042 10.637 12.851 10.637 21.628 0 14.82-11.807 26.883-26.527 27.296l-0.038 0.001c-0.743-0.015-1.619-0.024-2.497-0.024-58.574 0-108.274 37.992-125.802 90.679l-0.27 0.936c-3.696 10.995-13.909 18.774-25.939 18.774-0.081 0-0.161 0-0.242-0.001zM512 671.004l6.258-18.773c18.144-53.017 67.545-90.455 125.689-90.455 0.213 0 0.425 0.001 0.637 0.001h19.878l-15.929-11.378c-33.413-24.368-54.879-63.382-54.879-107.41 0-14.682 2.387-28.806 6.794-42.006l5.987-17.838-15.929 11.378c-21.57 15.831-48.644 25.334-77.938 25.334s-56.368-9.503-78.309-25.593l-15.558-11.118 6.258 18.773c4.136 12.264 6.523 26.389 6.523 41.070 0 44.027-21.465 83.041-54.502 107.147l-16.875 11.64h19.911c0.123 0 0.27-0.001 0.416-0.001 58.355 0 107.902 37.709 125.604 90.089l5.963 19.708z" />
<glyph unicode="&#xe909;" glyph-name="cmd" d="M559.787 377.458c-18.537 0-33.564-15.027-33.564-33.564 0.314-18.409 15.155-33.25 33.535-33.564h186.056c18.537 0 33.564 15.027 33.564 33.564s-15.027 33.564-33.564 33.564zM305.493 320l113.778 113.778c6.033 6.152 9.757 14.588 9.757 23.893s-3.724 17.742-9.763 23.899l-113.772 113.772c-5.564 5.060-12.909 8.25-20.992 8.532l-0.056 0.002c-18.187-0.835-32.615-15.782-32.615-34.1 0-8.773 3.31-16.774 8.75-22.82l86.444-89.853-89.316-89.316c-6.033-6.152-9.757-14.588-9.757-23.893s3.724-17.742 9.763-23.899c6.146-6.028 14.582-9.752 23.888-9.752s17.742 3.724 23.899 9.763zM1027.413 707.413c-1.872 91.609-75.645 165.381-167.077 167.25l-693.083 0.003c-91.609-1.872-165.381-75.645-167.25-167.077l-0.003-500.799c1.872-91.609 75.645-165.381 167.077-167.25l693.083-0.003c91.609 1.872 165.381 75.645 167.25 167.077zM959.716 206.791c0-55.297-44.827-100.124-100.124-100.124h-692.338c-54.97 0.317-99.485 44.632-100.124 99.495l-0.001 501.252c0.64 54.923 45.154 99.239 100.094 99.555h692.937c55.297 0 100.124-44.827 100.124-100.124z" />
<glyph unicode="&#xe90a;" glyph-name="task_manager" d="M365.714 796.16c-5.475 14.226-19.031 24.138-34.902 24.138-0.072 0-0.145 0-0.217-0.001h-12.423c-14.232-5.472-24.148-19.031-24.148-34.906 0-4.533 0.808-8.876 2.289-12.895 20.352-56.296 49.928-104.941 87.305-146.42 6.359-6.116 15.519-10.128 25.617-10.128s19.259 4.012 25.975 10.53c6.499 6.698 10.511 15.859 10.511 25.957s-4.012 19.259-10.53 25.975c-29.419 33.162-53.014 72.296-68.677 115.244zM109.714-76.434h775.314c20.198 0 36.571 16.374 36.571 36.571s-16.374 36.571-36.571 36.571h-7.314v12.434c-13.195 174.483-103.242 325.551-236.011 420.872l-17.794 12.134 16.091 10.971c134.299 96.334 224.296 247.1 237.594 419.36l0.121 14.378h11.703c20.198 0 36.571 16.374 36.571 36.571s-16.374 36.571-36.571 36.571h-779.703c-20.198 0-36.571-16.374-36.571-36.571s16.374-36.571 36.571-36.571h10.24v-10.971c12.305-174.684 101.628-326.266 233.877-422.36l17.734-12.109-16.091-10.971c-133.161-96.843-222.102-247.539-234.679-419.442l-0.109-12.832h-11.703c-20.198 0-36.571-16.374-36.571-36.571s16.374-36.571 36.571-36.571zM316.709-3.291l-16.823-12.434v39.497h8.777l188.709 131.657 226.011-158.72zM195.291 872.229v13.897h609.28v-13.897c-20.48-213.577-171.154-383.269-292.571-393.509h-23.406c-122.88 10.24-272.823 179.931-293.303 393.509zM204.069 67.657c39.497 191.634 178.469 329.143 283.794 337.92h19.749c106.057-8.777 245.029-146.286 284.526-337.92l6.583-31.451-280.137 192.366c-5.893 4.239-13.256 6.78-21.211 6.78s-15.318-2.54-21.321-6.854l-279.297-193.023z" />
<glyph unicode="&#xe90b;" glyph-name="display_properties" d="M1032.533 812.658c0.001 0.169 0.001 0.369 0.001 0.569 0 65.351-52.978 118.329-118.329 118.329 0 0-0.001 0-0.001 0h-796.445c-65.106-0.323-117.76-53.176-117.76-118.328 0-0.001 0-0.001 0-0.002v-530.204c0-65.351 52.978-118.329 118.329-118.329h274.773c26.578-0.317 48.038-21.778 48.355-48.325v-68.297h-77.369c-5.97 0-10.809-4.839-10.809-10.809v-38.684c0-5.97 4.839-10.809 10.809-10.809h303.787c5.97 0 10.809 4.839 10.809 10.809v38.684c0 5.97-4.839 10.809-10.809 10.809h-78.507v68.267c0.317 26.578 21.778 48.038 48.325 48.355h284.475c61.833 4.298 110.365 55.512 110.365 118.061 0 0.094 0 0.189 0 0.283zM972.231 283.022c0-31.419-25.47-56.889-56.889-56.889h-796.444c-31.419 0-56.889 25.47-56.889 56.889v56.889h910.222zM972.231 401.351h-910.222v411.876c0 31.419 25.47 56.889 56.889 56.889h809.529c25.597-5.912 44.39-28.511 44.39-55.499 0-0.489-0.006-0.976-0.018-1.462z" />
<glyph unicode="&#xe90c;" glyph-name="power_options" d="M974.507 577.138h-35.271v-284.444h35.271c0.025 0 0.055 0 0.084 0 16.966 0 30.72 13.754 30.72 30.72 0 0.801-0.031 1.595-0.091 2.38l0.006 218.918c0.030 0.51 0.047 1.106 0.047 1.707 0 16.966-13.754 30.72-30.72 30.72-0.017 0-0.033 0-0.050 0zM43.804 598.187c0 18.537 15.027 33.564 33.564 33.564h763.449c18.537 0 33.564-15.027 33.564-33.564v-325.973c0-18.537-15.027-33.564-33.564-33.564h-763.449c-18.537 0-33.564 15.027-33.564 33.564zM77.369 194.844h763.449c42.73 0 77.369 34.639 77.369 77.369v325.973c0 42.73-34.639 77.369-77.369 77.369h-763.449c-42.73 0-77.369-34.639-77.369-77.369v-325.973c0-42.73 34.639-77.369 77.369-77.369zM436.907 443.449c-5.161-8.502-14.37-14.095-24.884-14.095-3.95 0-7.716 0.789-11.148 2.219l-98.795 41.458 146.773-127.431 42.667 69.973c5.168 8.471 14.359 14.040 24.851 14.040 3.322 0 6.513-0.558 9.486-1.586l105.041-36.916-151.893 122.88z" />
<glyph unicode="&#xe90d;" glyph-name="system_properties" d="M519.509 489.643c-0.101 0-0.222-0.001-0.342-0.001-19.973 0-38.124 7.797-51.577 20.514-10.799 10.207-17.899 24.298-19.067 40.041l-0.012 254.155c3.098 38.218 31.163 69.070 67.727 76.369l354.161 79.279c7.571 2.108 16.265 3.32 25.242 3.32 20.968 0 40.391-6.61 56.301-17.861 13.413-10.478 22.169-26.978 22.222-45.525v-320.862c-6.466-45.518-45.175-80.138-91.969-80.138-2.47 0-4.917 0.096-7.338 0.286l-353.301-9.577zM897.024 919.040h-17.749l-353.621-78.507c-18.61-3.082-33.1-17.571-36.146-35.927l-0.035-254.207c0.074-5.965 2.688-11.306 6.808-15.002 6.155-5.539 14.317-8.917 23.268-8.917 0.467 0 0.931 0.009 1.393 0.027l353.555 9.555c31.403 0 58.709 19.115 58.709 38.912v321.536c0.008 0.201 0.013 0.436 0.013 0.673 0 5.57-2.668 10.517-6.797 13.632-7.565 5.202-16.87 8.289-26.895 8.289-0.88 0-1.755-0.024-2.624-0.071zM120.149 482.133c-13.573 0.045-25.862 5.51-34.822 14.342-9.809 9.637-16.166 22.77-17.053 37.38l-0.008 198.134c1.138 29.614 20.973 54.305 47.986 62.676l209.38 45.185c4.175 1.074 8.969 1.691 13.906 1.691 13.318 0 25.589-4.487 35.382-12.032 12-9.989 19.669-25.090 19.669-41.983 0-0.325-0.003-0.65-0.008-0.973l0.001-236.154c0-0.025 0-0.055 0-0.085 0-36.502-28.648-66.313-64.687-68.174l-208.379-0.007zM341.333 800.256h-7.509l-208.896-45.056c-9.24-3.442-15.701-12.189-15.701-22.445 0-0.029 0-0.058 0-0.087v-198.651c-0.020-0.298-0.032-0.645-0.032-0.995 0-4.096 1.569-7.826 4.138-10.622 0.903-0.336 1.959-0.537 3.062-0.537s2.159 0.201 3.133 0.569l-0.061-0.020 208.896 5.461c0.025 0 0.055 0 0.085 0 12.852 0 23.4 9.865 24.484 22.436l0.006 235.612c0.007 0.16 0.011 0.349 0.011 0.538 0 4.149-1.85 7.865-4.771 10.369-1.889 1.664-4.197 2.861-6.746 3.411zM897.024-37.376c-3.891-0.437-8.402-0.686-12.971-0.686s-9.080 0.249-13.519 0.735l-353.755 79.141c-37.103 7.389-65.169 38.241-68.247 76.158l-0.020 250.84c-0.001 0.154-0.002 0.336-0.002 0.518 0 17.517 7.331 33.322 19.091 44.514 13.64 12.727 31.974 20.526 52.129 20.526 0.643 0 1.283-0.008 1.922-0.024l353.527-9.555c2.13 0.174 4.61 0.273 7.113 0.273 46.555 0 85.106-34.265 91.81-78.952l0.063-318.633c-0.054-18.556-8.809-35.056-22.398-45.641-14.935-12.006-33.964-19.212-54.675-19.212-0.024 0-0.048 0-0.072 0zM519.509 392.021c-0.153 0.003-0.333 0.004-0.514 0.004-8.771 0-16.753-3.376-22.719-8.899-4.117-3.692-6.73-9.033-6.805-14.985v-250.552c3.082-18.61 17.571-33.1 35.927-36.146l353.876-77.176c5.026-1.597 10.806-2.517 16.801-2.517 11.225 0 21.697 3.225 30.54 8.8 3.934 3.007 6.603 7.954 6.603 13.524 0 0.237-0.005 0.472-0.014 0.706l0.001 320.82c0 19.797-27.307 38.229-58.709 38.912l-353.621 7.509zM341.333 81.408h-13.653l-210.944 47.104c-27.29 8.423-47.036 32.787-48.463 61.964l-0.006 198.132c0 0.042 0 0.092 0 0.142 0 15.969 6.528 30.414 17.061 40.812 9.577 8.638 22.224 14.022 36.123 14.341l208.278-5.46c34.571-2.081 62.090-29.599 64.162-63.981l0.009-237.075c0.005-0.275 0.008-0.6 0.008-0.925 0-16.892-7.669-31.994-19.716-42.011-8.948-7.53-20.283-12.308-32.705-13.035zM120.149 402.944c-0.913 0.347-1.969 0.549-3.072 0.549s-2.159-0.201-3.133-0.569c-2.498-2.764-4.066-6.494-4.066-10.59 0-0.35 0.011-0.697 0.034-1.042l-0.002-197.244c0-0.025 0-0.054 0-0.083 0-10.256 6.462-19.003 15.536-22.391l209.061-45.11c2.201-1.052 4.783-1.667 7.509-1.667s5.309 0.615 7.617 1.713c2.831 2.473 4.682 6.19 4.682 10.339 0 0.189-0.004 0.378-0.011 0.565l0.001 236.176c-0.744 12.973-11.445 23.211-24.538 23.211-0.013 0-0.027 0-0.040 0l-209.577 6.144z" />
<glyph unicode="&#xe90e;" glyph-name="device_manager" d="M736.597 565.419h172.715c51.735 0.387 93.525 42.416 93.525 94.206 0 0.001 0 0.002 0 0.003v172.032c0 52.030-42.178 94.208-94.208 94.208h-172.032c-52.030 0-94.208-42.178-94.208-94.208v-62.123h-68.267c-60.344-3.696-107.883-53.539-107.883-114.486 0-0.791 0.008-1.58 0.024-2.368l-0.002-188.981h-105.813v60.757c0 52.030-42.178 94.208-94.208 94.208h-172.032c-52.030 0-94.208-42.178-94.208-94.208v-172.032c0-52.030 42.178-94.208 94.208-94.208h172.032c52.030 0 94.208 42.178 94.208 94.208v56.661h105.813v-188.416c0.352-61.87 49.64-112.114 111.1-114.001l68.441-0.004v-58.709c0-52.030 42.178-94.208 94.208-94.208h172.715c0.001 0 0.002 0 0.002 0 51.79 0 93.819 41.79 94.205 93.489v170.021c0 0.026 0 0.058 0 0.089 0 52.030-42.178 94.208-94.208 94.208-1.441 0-2.874-0.032-4.298-0.096l-171.83 0.007c-52.030 0-94.208-42.178-94.208-94.208v-58.709h-68.267c-31.386 2.189-56.018 28.187-56.018 59.938 0 0.768 0.014 1.534 0.043 2.295l-0.003 432.018c-0.025 0.652-0.040 1.417-0.040 2.185 0 31.751 24.632 57.749 55.829 59.927l68.456 0.011v-54.613c-0.002-0.203-0.002-0.443-0.002-0.683 0-52.030 42.178-94.208 94.208-94.208 0.001 0 0.002 0 0.003 0zM694.272 831.659c0.384 23.457 19.49 42.325 43.003 42.325 0.002 0 0.004 0 0.006 0h172.714c23.753 0 43.008-19.255 43.008-43.008v-171.349c0-0.002 0-0.004 0-0.005 0-23.513-18.868-42.618-42.289-43.002h-174.116c-23.222 0.377-41.948 19.103-42.325 42.29zM309.931 353.792c-0.381-23.46-19.488-42.331-43.003-42.331-0.242 0-0.483 0.002-0.724 0.006h-171.996c-0.014 0-0.032 0-0.049 0-23.032 0-41.836 18.105-42.955 40.86l-0.004 172.132c0.384 23.457 19.49 42.325 43.003 42.325 0.002 0 0.004 0 0.006 0h172.032c23.753 0 43.008-19.255 43.008-43.008zM694.272 217.259c0 23.753 19.255 43.008 43.008 43.008h172.715c23.753 0 43.008-19.255 43.008-43.008v-172.715c0-0.002 0-0.004 0-0.005 0-23.513-18.868-42.618-42.289-43.002h-174.116c-23.222 0.377-41.948 19.103-42.325 42.29z" />
<glyph unicode="&#xe90f;" glyph-name="disk_management" d="M877.628 869.647h-727.642c-2.039 0.104-4.428 0.163-6.831 0.163-76.478 0-138.97-59.886-143.138-135.322l-0.016-581.64c4.185-75.806 66.676-135.692 143.155-135.692 2.403 0 4.792 0.059 7.165 0.176l727.308-0.013c2.039-0.104 4.428-0.163 6.831-0.163 76.478 0 138.97 59.886 143.138 135.322l0.016 581.64c-4.185 75.806-66.676 135.692-143.155 135.692-2.403 0-4.792-0.059-7.165-0.176zM42.767 560.038h942.080v-232.508h-942.080zM42.767 734.118c2.898 54.226 47.573 97.099 102.263 97.099 1.743 0 3.476-0.044 5.198-0.13l727.4 0.010c1.48 0.076 3.213 0.12 4.956 0.12 54.689 0 99.365-42.873 102.252-96.842l0.011-135.786h-942.080zM984.847 152.847c-2.898-54.226-47.573-97.099-102.263-97.099-1.743 0-3.476 0.044-5.198 0.13l-727.4-0.010c-1.48-0.076-3.213-0.12-4.956-0.12-54.689 0-99.365 42.873-102.252 96.842l-0.011 135.786h942.080zM730.654 728.094c0-10.645-8.63-19.275-19.275-19.275s-19.275 8.63-19.275 19.275c0 10.645 8.63 19.275 19.275 19.275s19.275-8.63 19.275-19.275zM808.358 728.094c0-10.645-8.63-19.275-19.275-19.275s-19.275 8.63-19.275 19.275c0 10.645 8.63 19.275 19.275 19.275s19.275-8.63 19.275-19.275zM885.459 728.094c0-10.645-8.63-19.275-19.275-19.275s-19.275 8.63-19.275 19.275c0 10.645 8.63 19.275 19.275 19.275s19.275-8.63 19.275-19.275zM730.654 457.035c0-10.645-8.63-19.275-19.275-19.275s-19.275 8.63-19.275 19.275c0 10.645 8.63 19.275 19.275 19.275s19.275-8.63 19.275-19.275zM808.358 457.035c0-10.645-8.63-19.275-19.275-19.275s-19.275 8.63-19.275 19.275c0 10.645 8.63 19.275 19.275 19.275s19.275-8.63 19.275-19.275zM885.459 457.035c0-10.645-8.63-19.275-19.275-19.275s-19.275 8.63-19.275 19.275c0 10.645 8.63 19.275 19.275 19.275s19.275-8.63 19.275-19.275zM730.654 185.976c0-10.645-8.63-19.275-19.275-19.275s-19.275 8.63-19.275 19.275c0 10.645 8.63 19.275 19.275 19.275s19.275-8.63 19.275-19.275zM808.358 185.976c0-10.645-8.63-19.275-19.275-19.275s-19.275 8.63-19.275 19.275c0 10.645 8.63 19.275 19.275 19.275s19.275-8.63 19.275-19.275zM885.459 185.976c0-10.645-8.63-19.275-19.275-19.275s-19.275 8.63-19.275 19.275c0 10.645 8.63 19.275 19.275 19.275s19.275-8.63 19.275-19.275z" />
<glyph unicode="&#xe910;" glyph-name="control_panel" d="M40.391 585.102h96.711c16.072-59.503 69.567-102.566 133.12-102.566s117.048 43.063 132.898 101.601l554.889 0.964c22.756 0 42.667-2.844 42.667 28.444s-18.773 28.444-42.667 28.444h-551.253c-10.834 66.468-67.831 116.585-136.533 116.585s-125.7-50.117-136.426-115.787l-93.405-0.798c-22.187 0-40.391 0-40.391-28.444s18.204-28.444 40.391-28.444zM269.653 709.689c0.169 0.001 0.369 0.002 0.569 0.002 48.385 0 87.609-39.224 87.609-87.609s-39.224-87.609-87.609-87.609c-48.384 0-87.608 39.223-87.609 87.607 0 0.001 0 0.001 0 0.002 0 48.185 38.9 87.284 87.009 87.607zM959.716 300.658h-92.729c-10.834 66.468-67.831 116.585-136.533 116.585s-125.7-50.117-136.426-115.787l-551.361-0.798c-22.756 0-42.667 5.12-42.667-27.876s18.773-28.444 42.667-28.444h554.667c16.072-59.503 69.567-102.566 133.12-102.566s117.048 43.063 132.898 101.601l96.365 0.964c22.187 0 40.391 0 40.391 28.444s-17.636 27.876-40.391 27.876zM732.16 193.138c-48.385 0-87.609 39.224-87.609 87.609s39.224 87.609 87.609 87.609c48.385 0 87.609-39.224 87.609-87.609 0.005-0.343 0.008-0.749 0.008-1.155 0-48.385-39.224-87.609-87.609-87.609-0.603 0-1.204 0.006-1.804 0.018z" />
<glyph unicode="&#xe911;" glyph-name="menu_drivers" d="M986.379 733.685l-188.106-188.693-151.66 38.209-38.209 150.485 189.281 188.693c-151.072 77.006-252.179 25.277-340.941-63.486s-131.086-181.052-94.053-293.915l-268.638-270.402-52.317-52.317c-25.882-30.493-41.62-70.301-41.62-113.786 0-52.095 22.589-98.914 58.506-131.196 32.643-36.985 79.946-60.104 132.648-60.104 43.228 0 82.822 15.553 113.494 41.369l320.1 320.148c114.627-36.445 212.207 11.169 293.915 94.053s144.606 191.045 67.6 340.941zM249.828 72.377c-14.447-14.35-34.354-23.219-56.333-23.219-44.152 0-79.945 35.793-79.945 79.945s35.793 79.945 79.945 79.945c21.978 0 41.885-8.869 56.337-23.224 14.58-14.482 23.608-34.547 23.608-56.721s-9.027-42.239-23.608-56.721z" />
<glyph unicode="&#xe912;" glyph-name="maximize-back" d="M654.72 533.44v-320h-384v320h384zM686.72 565.44h-448v-384h448v384zM366.72 693.44v-128h32v96h384v-320h-96v-32h128v384h-448z" />
<glyph unicode="&#xe913;" glyph-name="soft-screen-download" horiz-adv-x="1078" d="M640.932 129.025l-92.413-74.527v418.096c0 0.039 0 0.084 0 0.13 0 18.934-15.349 34.282-34.282 34.282-1.050 0-2.088-0.047-3.114-0.139-0.761 0.092-1.8 0.139-2.849 0.139-18.934 0-34.282-15.349-34.282-34.282 0-0.046 0-0.091 0-0.137v-419.58l-61.857 74.527c-4.661 6.357-12.101 10.438-20.495 10.438s-15.834-4.081-20.445-10.368c-5.328-5.767-8.567-13.419-8.567-21.827 0-10.193 4.759-19.275 12.176-25.144l139.432-134.2c3.341-3.372 7.294-6.131 11.679-8.1 2.374-0.558 4.819-0.821 7.325-0.821s4.952 0.263 7.309 0.764c0.141-0.056 0.576-0.065 1.012-0.065 9.268 0 17.595 4.028 23.326 10.429l137.901 134.924c14.16 13.415 7.453 33.537-6.707 46.952-7.185 6.024-16.529 9.682-26.729 9.682-10.992 0-20.992-4.25-28.446-11.196zM813.834 779.645c-5.581 0.495-12.073 0.778-18.632 0.778s-13.051-0.282-19.466-0.836c-50.945 106.803-158.059 179.329-282.224 180.412-1.51 0.023-3.122 0.036-4.737 0.036-156.92 0-286.078-118.867-302.343-271.471-116.822-9.949-208.246-106.754-208.246-224.913 0-123.797 100.357-224.154 224.154-224.154 5.639 0 11.228 0.208 16.762 0.617l198.993-0.044c20.58 0 37.263 16.683 37.263 37.263s-16.683 37.263-37.263 37.263h-199.732c-82.32 0-149.054 66.734-149.054 149.054s66.734 149.054 149.054 149.054c0.468-0.023 1.016-0.037 1.568-0.037 18.522 0 33.537 15.015 33.537 33.537 0 0.8-0.028 1.593-0.083 2.378 1.71 129.89 107.489 234.616 237.728 234.616 107.379 0 198.131-71.189 227.635-168.945 8.688-18.891 25.908-30.595 45.878-30.749h0.020c7.453 0 15.651 11.924 25.339 12.67 6.789 1.948 14.888 3.522 23.192 4.414 108.496 0.057 195.917-87.364 195.917-195.203s-87.421-195.261-195.261-195.261h-149.054c-20.58 0-37.263-16.683-37.263-37.263s16.683-37.263 37.263-37.263h149.054c148.382 0 268.67 120.287 268.67 268.67s-120.287 268.67-268.67 268.67z" />
<glyph unicode="&#xe921;" glyph-name="protect-screen-remove" horiz-adv-x="996" d="M958.578 789.333h-253.724v132.551c0 21.051-17.065 38.116-38.116 38.116h-336.782c-21.051 0-38.116-17.065-38.116-38.116v-132.551h-253.724c-21.051 0-38.116-17.065-38.116-38.116s17.065-38.116 38.116-38.116h93.867l60.302-739.556c0.249-19.854 15.639-36.035 35.141-37.539l536.592-0.008c0.045 0 0.099 0 0.153 0 19.849 0 36.154 15.172 37.951 34.552l60.313 739.706h93.867c21.051 0 38.116 17.065 38.116 38.116s-17.065 38.116-38.116 38.116zM367.502 883.769h261.12v-94.436h-261.12zM731.022 11.662h-465.92l-56.889 700.871h580.267zM591.076 159.573c-21.051 0-38.116 17.065-38.116 38.116v335.644c0 21.051 17.065 38.116 38.116 38.116s38.116-17.065 38.116-38.116v-335.644c0-21.051-17.065-38.116-38.116-38.116zM405.618 159.573c-21.051 0-38.116 17.065-38.116 38.116v335.644c0 21.051 17.065 38.116 38.116 38.116s38.116-17.065 38.116-38.116v-335.644c0-21.051-17.065-38.116-38.116-38.116z" />
</font>
</defs>
</svg>
